Sharon Mansfield | Sheila Waldron | Susie Jones

Скачать через торрент Игры хакеров: Возвращение Hacker's Game Redux Фильм бесплатно в хорошем качестве torrent

Скачивайте на UnionPeer.org фильмы через торрент без регистрации. Новинки кино в хорошем качестве через торрент. На UnionPeer.org можно скачать через торрент фильмы 2014 и 2015 годов. Самые новые фильмы.

Скачать торрент Игры хакеров: Возвращение Hacker's Game Redux бесплатно через .torrent фильм мультфильм сериал

Статистика раздачи
Размер:  2.02 GB   |    Зарегистрирован:  7 дней   |    .torrent скачан:  99 раз   |   
Раздают:  1  
   
загрузка...
 
Автор Сообщение

Galfimbul

avatar Galfimbul




Игры хакеров: Возвращение /Hacker's Game Redux

Год выхода: 2018
Жанр: Триллер
Режиссер: Сирил Морин
В ролях: Пом Клементьефф, Алена фон Строхейм, Сиркус-Шалевски, Гайла Джонсон, Росс Батлер, Тед Мэттисон, Крис Шелленгер, Кинг Орба
О фильме:
Сойан - хакер, работающий на компанию, которую до этого взломал. Эта онлайн-фирма по безопасности проводит скрытые действия для высококлассных клиентов по всему миру. Луис - кибер-детектив, она расследует военные преступления для правозащитной организации. Она одержима истиной. Луис и Сойан находят связь, но Сойан должен защитить того же торговца оружием, которого Луис хочет поймать. Какова реальная цель Сойана? Между Луис и Сойан возникает опасный роман. Нахоясь в виртуальном мире, готовы ли Сойан и Луис рискнуть всем ради настоящей любви?


Страна: США, Media in Sync
Продолжительность: 01:29:37
Перевод: Любительский (двухголосый закадровый) | HiWay Grope

Файл
Кодек: MPEG-4 AVC/x.264
Качество: WEBRip 720p
Видео: 1280x544, 23.976 fps, ~2964 kbps, 0.178 bit/pixel
Звук:
Аудио rus: AC3, 48 kHz, 6 ch, 256 Kbps
Субтитры: отсутствуют

Реклама: присутствует

Семпл
General
Unique ID : 223927412900974644895285902755147620499 (0xA876D9DA515AF56A94F94243EFFD2093)
Complete name : D:Hackers.Game.Redux.2018.720p.WEBRip.HiWayGropeHackers.Game.Redux.2018.720p.WEBRip.HiWayGrope.mkv
Format : Matroska
Format version : Version 4 / Version 2
File size : 2.02 GiB
Duration : 1 h 29 min
Overall bit rate mode : Variable
Overall bit rate : 3 222 kb/s
Encoded date : UTC 2018-11-07 23:50:24
Writing application : mkvmerge v17.0.0 ('Be Ur Friend') 64-bit
Writing library : libebml v1.3.5 + libmatroska v1.4.8

Video
ID : 1
Format : AVC
Format/Info : Advanced Video Codec
Format profile : High@L5
Format settings : CABAC / 4 Ref Frames
Format settings, CABAC : Yes
Format settings, RefFrames : 4 frames
Codec ID : V_MPEG4/ISO/AVC
Duration : 1 h 29 min
Bit rate mode : Variable
Bit rate : 2 964 kb/s
Maximum bit rate : 12.0 Mb/s
Width : 1 280 pixels
Height : 544 pixels
Display aspect ratio : 2.35:1
Frame rate mode : Constant
Frame rate : 23.976 (24000/1001) FPS
Standard : NTSC
Color space : YUV
Chroma subsampling : 4:2:0
Bit depth : 8 bits
Scan type : Progressive
Bits/(Pixel*Frame) : 0.178
Stream size : 1.86 GiB (92%)
Language : English
Default : Yes
Forced : No
Color range : Limited
Color primaries : BT.601 NTSC
Transfer characteristics : BT.601
Matrix coefficients : BT.601

Audio
ID : 2
Format : AC-3
Format/Info : Audio Coding 3
Codec ID : A_AC3
Duration : 1 h 29 min
Bit rate mode : Constant
Bit rate : 256 kb/s
Channel(s) : 6 channels
Channel positions : Front: L C R, Side: L R, LFE
Sampling rate : 48.0 kHz
Frame rate : 31.250 FPS (1536 SPF)
Bit depth : 16 bits
Compression mode : Lossy
Stream size : 164 MiB (8%)
Service kind : Complete Main
Default : Yes
Forced : No
Релиз от: HiWay Grope
Источник http://BlaTor.org

Трекер:  [ 08-Ноя-2018 15:20 ]

  

Скачать .torrent

Размер .torrent файла 10 KB


Размер: 2.02 GB
Хэш (hash) релиза: a7a6b8715d4a40560c3130a3009a370e71e6c8e9
Подписка на обновления:

Торренты, похожие на Игры хакеров: Возвращение Hacker's Game Redux скачать торрент

Форум Название Автор Размер S L Добавлен
Зарубежные фильмы 2016-2018 (Новинки зарубежного кино) ·%· Игры хакеров: Возвращение / Hacker's Game Redux (2018) WEBRip | L2 Galfimbul 13723654521.28 GB 0 0 1541718639

02:10

9-Ноя-18

Еще никто не оставлял запись к записи скачать торрент Игры хакеров: Возвращение Hacker's Game Redux . Будь первым!

!Обратная связь